VA IV Miracle 2018 FLAC 24 Bits 441 KHz / 48 KHz Lossless

Downtempo, Indietronica, House, Future Beats, IDM | 2018

VA - IV Miracle

    01. Moscillate - Save Me [02:24]
    02. Shuma - Hmarki [02:56]
    03. Roules - Ruin Me [03:54]
    04. Mew19 - Existence [03:29]
    05. Slow Motion Music - Brighter Than Black and White [05:00]
    06. Mari Cheba - Z toboyu 03:56
    07. Hark Madley - Friendship 7 [03:00]
    08. Ana Zhdanova - Znichka (Diamos Roll vision) [04:28]
    09. Cortel - Secrets [04:54]
    10. ABSTe - Wandering [02:52]
    11. Thiam - Light Is Still Shining [03:25]
    12. Mustelide - Nanoantenna (Senary remix) [03:47]
    13. Dlina Volny - Prospekty [04:28]
    14. Stayhomie - Happy Today, Sad Tomorrow [03:46]
    15. Twin Tonality - Sleepover [04:17]
    16. Small Skies - Faces [04:18]
    17. Ponkie - Again [03:52]
    18. Xumb - Cali Sun [03:49]
    foobar2000 1.3.17 / Dynamic Range Meter 1.1.1
    DR6 -0.20 dB -8.52 dB 4:28 08-Znichka (Diamos Roll vision)
    DR8 -0.51 dB -9.50 dB 4:29 13-Prospekty
    Mew19 / IV Miracle (2)
    DR4 -0.02 dB -6.94 dB 3:01 07-Friendship 7
    DR6 -0.08 dB -8.72 dB 3:29 04-Existence
    DR7 0.00 dB -9.50 dB 2:25 01-Save Me
    DR6 -0.10 dB -7.42 dB 3:48 12-Nanoantenna (Senary remix)
    DR8 -0.27 dB -9.57 dB 5:00 05-Brighter Than Black and White
    DR4 -0.42 dB -5.61 dB 4:18 16-Faces
    DR8 0.00 dB -9.45 dB 3:46 14-Happy Today, Sad Tomorrow
    DR5 -0.21 dB -6.65 dB 3:26 11-Light Is Still Shining
    DR6 -0.14 dB -7.56 dB 4:18 15-Sleepover
    DR4 -0.30 dB -6.23 dB 4:54 09-Secrets
    DR6 0.00 dB -7.99 dB 3:56 06-Z toboyu
    foobar2000 1.3.17 / Dynamic Range Meter 1.1.1

  • Released : 2018

  • Genres : Downtempo, Indietronica, House, Future Beats, IDM

  • Release : VA.IV.Miracle.2018.FLAC.24.bits.441.KHz./.48.KHz.Lossless
  • Quality : FLAC 24 Bits 441 KHz / 48 KHz
  • Size : 569.9 MB

  • Published : 4 months ago

#Download ( 4 Links )

569.87 MB NITROFLARE.COM #1 Download VA IV Miracle 2018 FLAC 24 Bits 441 KHz / 48 KHz Lossless Download #Link 1
569.87 MB RAPIDGATOR.NET #2 Download VA IV Miracle 2018 FLAC 24 Bits 441 KHz / 48 KHz Lossless Download #Link 2
569.87 MB 1FICHIER.COM #3 Download VA IV Miracle 2018 FLAC 24 Bits 441 KHz / 48 KHz Lossless Download #Link 3
569.87 MB UPTOBOX.COM #4 Download VA IV Miracle 2018 FLAC 24 Bits 441 KHz / 48 KHz Lossless Download #Link 4



DMCA - Contact

© 2017 HD-Download

Page rendered in 0.105 seconds. Memory usage 408.4 kb.